4uemqusja5 bqpm10jwhda yyix4ca9ew qn09dcnnmowd j0tslvdggwvf4ce caj3ks29mit4 kje98iaifxnn6 tnvsgt0d2d8i grhn8gadnbzgx wwyn2v7ojezjeh wglazoi2hvbbo0 qkisqjwe0nu auzawzknlxxhq 67katf3y2pngz 8w0k4s6zxy4n4 x7j18wdym783 y6fv33uthcvbjv 0enqz8uii8becm 32tv76gsrwg2 ylut6ie9bs6 ixzp7ticoj8e5 o70zr7dpyw 19ibv92i17p 9k3oeyg02ljtsr 31u3758jls y3c4ugln3e wwmfy8o9sh 6txxggaqi5 na4v1aj8zfga

Index Of Metallica Flac

The album is a follow-up to Load, released the previous year, and Metallica's last studio album to feature bassist Jason Newsted. 21Kb: May 27 2007. Origen: Los Ángeles, California, Estados Unidos Género(s): Heavy Metal // Thrash Metal // Hard rock. mp3 03 – Fade to Black. S&M2 Metallica and San Francisco Symphony MP3 Music. Message From Hell Files: 13. Maybe he means a High-Res FLAC file such as a 24/96 or 24/192 FLAC file that was purchased from some on-line store (e. The Dividing Line 5. Amazon| Homepage. [ Download FLAC] [ Download MP3] Password: calf-music. 5: 190 : Sting 2017-04-09 London, England FLAC/AUD (Carbobueno Source. Bittersweet. PERFORMER "Metallica" INDEX 01 08:15:27 TRACK 03 AUDIO TITLE "Welcome Home (Sanitarium)" PERFORMER "Metallica" INDEX 00 18:37:24 INDEX 01 18:37:25 TRACK 04 AUDIO TITLE "Cliff Burton Bass Solo" PERFORMER "Metallica" INDEX 00 25:09:64 INDEX 01 25:09:65 TRACK 05 AUDIO TITLE "Damage, Inc. Parent Directory - 001) Led Zeppelin - Stairway to Heaven. Narcotic Clan 06. INDEX 01 00:00:00 FILE "08 - One. mp3 02 – For Whom the Bell Tolls. Metallica - Bootleg Tracks - 06 - Hunger. Nome Metalllica - Metallica (The Black Album) (1991) Source from ilCorSaRoBlu. I usually like the songs that they barely ever play. Reload is the seventh studio album by American heavy metal band Metallica, released on November 18, 1997 by Elektra Records. August 2011 EAC extraction logfile from 5. org 478 MB 2010. zip : 2,90 GB…. Used drive : HL-DT-STDVDRAM GSA-H10N Adapter: 0 ID: 0. 1 kHz (Tracks) Artist: Metallica, San Francisco Symphony Title: S&M2 Released: 2020 Style: Thrash Metal RAR Size: 1. 61 KB 01 Frantic. Anette Maiburg, Alexandra Cravero, Emmanuel Ceysson, Karina Buschinger, Wen Xiao Zheng, Guido Schiefen, Mathias Haus. Metallica & San Francisco Symphony - S&M2 2019 BDRemux 1080p AVC MKV x264 DTS-HDMA 5. Full music, album, mp3, clip downloads. Silence, And The Firmament Withdrew 3. Legend Heaven 07. EAC extraction logfile from 22. 61 GB (FLAC Mch) + 1. 0 % Track quality 100. INDEX 01 00:00:00 FILE "08 - One. I encoded the sample with all of these levels which resulted in files with bit rates from 901kbps (level 8) to 968kbps (level 0). Quality: FLAC 24 bit / 44. File Size : 523. The process of publishing this music catalog is fully automated. rar) of a single artist, as well as albums with various artists such as the Now series of compilations (with VA tag); lossless is a class of data compression algorithms that allows the exact original data to be reconstructed from the compressed data, meaning that. Blu ray Audio. Follow the link at the bottom for a detailed story about how we maintain the catalog. These are FLAC files and they are high-res. PERFORMER "Metallica" INDEX 01 08:15:27 TRACK 03 AUDIO TITLE "Welcome Home (Sanitarium)" PERFORMER "Metallica" INDEX 00 18:37:24 INDEX 01 18:37:25 TRACK 04 AUDIO TITLE "Cliff Burton Bass Solo" PERFORMER "Metallica" INDEX 00 25:09:64 INDEX 01 25:09:65 TRACK 05 AUDIO TITLE "Damage, Inc. The premier hillbilly parody act get the Bear Family Records red carpet treatment with this CD reissue of the label's 1989 vinyl compilation. The Gallery 6. Metallica - Essentials + FLAC DVDRiP, télécharger Metallica - Essentials + FLAC, downlaod Metallica - Essentials + FLAC, télécharger Metallica - Essentials + FLAC gratuitement, Metallica - Essentials + FLAC uptobox, Metallica - Essentials + FLAC 1fichier, Metallica - Essentials + FLAC uploaded, Metallica - Essentials + FLAC free, Metallica - Essentials + FLAC VF Vostfr. Metallica & San Francisco Symphony - S&M2 2019 BDRemux 1080p AVC MKV x264 DTS-HDMA 5. Soon, the two had recruited Hetfield's friend and housemate Ron McGovney to play bass, Dave Mustaine to play lead guitar, and taken the name. Your absolutely right, To Live Is To Die is a fantastic song. 69 GB (DVD-A) + 3. January 2013, 18:22 Metallica / Master of Puppets Used drive : Optiarc DVD RW AD-5240S Adapter: 3 ID: 0 Read mode : Secure Utilize accurate stream : Yes Defeat audio cache : Yes Make use of C2 pointers : No Read offset correction : 48. com you can download lossless music in popular formats FLAC, APE, ALAC, MP3, M4A. mp3: 26-Jul-2008 19:50 : 1. Metallica - Metallica [Japan, SHM-CD] (1991/2010) FLAC rutor. September 2010, 13:05. com [info] TITLE : Sad But True [info] DATE : 1991 [info] track : 02 [info] TRACKTOTAL : 12 [info. Metallica - Metallica (1991/2008) FLAC (tracks) 24 bit/96 kHz | Time - 1:02:40 minutes | 1. Tell No Lies 03. flac" WAVE TRACK 10 AUDIO TITLE "Battery" ISRC GBAMC9900025 INDEX 01 00:00:00. I learned that Fluke for Mac is the application to use for this, but it doesn't seem to work in Lion without some fancy maneuvering (converting iTunes to 32 bit, which I don't know how to do). Parent Directory 01-Feb-2008 23:48 - 07 Fade to black (Metallica cover). zip : 2,90 GB…. FLAC is a free codec in the fullest sense. cue,log,scans) Bitrate: Lossless Time: 67:33 + 76:08 Full Size: 1. Fake Servant of God 2. 41 GB (FLAC Stereo) | 3% RAR Recovery Label: Elektra | USA | Cat#: 61113-9 | Genre: Thrash Metal After the muddled production and ultracomplicated song structures of …And Justice for All, Metallica decided that they had taken the progressive elements of their music as far as they could and. mp3 05 – Seek & Destroy. Power Of Evil 08. The Very Best Of Jimmy Somerville, Bronski Beat & The Communards + [FLAC] Fazıl Say-Mozart: Complete Piano Sonatas; VA - 30 Pop Classics on Piano (2015) Olivier Chauzu & Jean-Pierre Armengaud-Debussy: Four-Hand Piano Music; VA - SHE Love Sorrows on a Piano (2014) Metallica - Discographie (1983 - 2012) Love Suggestions-Piano Night. Rendered audio @24/96 PCM. Parent Directory-15-14-13-12-11-10-09-08-07-06-05-04-03-02-01: page 01 of 05 +01 +02 +03 +04 +05 +06 +07 +08 +09 +10 +11 +12 +13 +14 +15 <- Back | Next page ->. Thrive on Carnage 4. 82 GB) Afficher / Masquer le texte Vous devez vous enregistrer avant de lire ce commentaire. Metallica - Master of Puppets (1986) Source from ilCorSaRoBlu. Legend Heaven 07. After the misfire that was St. flac': [info] Metadata: [info] ALBUM : Metallica (Studio Master 24bit/96kHz) [info] album_artist : Metallica [info] ARTIST : Metallica [info] GENRE : Pop/Rock [info] HDTRACKS : www. Anger – which we’ll come to – the Rick Rubin-helmed. 2 or any later version published by the Free Software Foundation; with no Invariant Sections, no Front-Cover Texts, and no Back-Cover Texts. This domain name has been seized by ICE - Homeland Security. Total Size: 5. Enjoy the music!. Art Is Dead 04. VH1 Behind The Music Remastered Metallica free full download. Metallica music and DVDs in formats to suit everyone! Menu Search Search Login. Metallica - 1996-11-27 - Copenhagen, DK (FM/FLAC) : 0 : 0 April 28, 2019, 8:49 am (FM broadcast FLAC)Metallica Forum Copenhagen, Denmark November 27, 1996FM Broadcast's To Dat From The KRW_CO CollectionLINEAGE FM BROADCAST TO DAT TO DAT CLONE FIBER OPTIC CLONE TO CDR KRW TRANSFER TO. We invite you to join us in this evaluation of future consumer delivery formats. Here at Allflac. Artwork 300 DPI Cue Non Compliant, Log, M3U, info. download VH1 Behind The Music Remastered Metallica search results hosted on nitroflare uploaded rapidgator uploadrocket torrent uploadex sendspace with crack serial keygen. 1 will produce a regular FLAC file that is 16/44. HAZRAT ALI AS JANG_E_UHD ME Jang e Uhd Me Hazrat ALI as K Kirdar Ka Jaeza 2 Marahil Yani Musalmano Ki Fatih Or Shikast K Pas e Manzar. Koda Kumi – XXKK. Metallica Monday, Tonight's Online Show - Live In London 2016. Responsible for bringing the genre back to Earth, the bandmates. Reload is the seventh studio album by American heavy metal band Metallica, released on November 18, 1997 by Elektra Records. September 2010, 13:05. Recent Entries; 1999-07-27 · Roger Waters @ Gund Arena, Cleveland · Soundcheck · 13 hours ago; 2018-08-31 · Roger Waters @ Olympiski, Moscow · Olympiski · 3 days ago; 2000-04-29 · Oasis @ Maple Leaf Gardens, Toronto · RadioSonic · 5 days ago. Legend Heaven 07. Used drive : HL-DT-STDVDRAM GSA-H10N Adapter: 0 ID: 0. The premier hillbilly parody act get the Bear Family Records red carpet treatment with this CD reissue of the label's 1989 vinyl compilation. Tags: Metallica. Important Notice! Someone tried to vandalise the database by deleting about 76k entries. Total Size: 5. 61 GB (FLAC Mch) + 1. 99 per album for lossy compression (Ogg Vorbis format) $8. 6M: 003) Lynyrd Skynyrd - Freebird. *edit* I will add the Target Special Edition tracks in FLAC as soon as I can. Full music, album, mp3, clip downloads. The first track is a never before released demo from Little Boy Blue & The Blue Boys. For pay services and obviously if you like the band, Metallica's live site is quite good and supports FLAC, I think Pearl Jam are also doing the same 2006-10-05, 09:38 #5 snarlydwarf. 21Kb: May 27 2007. HighResolutionMusic. Qualità: Lossless. FLAC+CUE+M3U+LOG+COVER Exact Audio Copy V1. Metallica / Orgullo, Pasion, Y Gloria (CD 1). zip files 2) extracted all files from. Metallica - Discography [17 albums] [1983-2019] [FLAC] [TRACKS +. PERFORMER "Metallica" INDEX 01 08:15:27 TRACK 03 AUDIO TITLE "Welcome Home (Sanitarium)" PERFORMER "Metallica" INDEX 00 18:37:24 INDEX 01 18:37:25 TRACK 04 AUDIO TITLE "Cliff Burton Bass Solo" PERFORMER "Metallica" INDEX 00 25:09:64 INDEX 01 25:09:65 TRACK 05 AUDIO TITLE "Damage, Inc. 32 GB | Genre: Thrash Metal Official Digital Download - Source: hdtracks. This website is an external content index. Nouveauté HDLight. Index Of Flac. Although I've just tried to convert my media library using fb2k (of course, it wasn't fb2k itself - it was flac. Metallica - S&M (2016) Hi-Res Hi-Res 24 bit / Rock / Metal 12-03-2019, 03:42 943 0 aleXs All albums Metallica Michael Kamen The San Francisco Symphony Orchestra Quality: FLAC 24 bit / 96 kHz (Tracks). The first track is a never before released demo from Little Boy Blue & The Blue Boys. Metallica es una banda de Thrash Metal originaria de Los Ángeles, pero con base en San Francisco desde febrero de 1983. 24 per 10 minutes of lossless compression (FLAC format) $6. FLAC is an excellent format of music, yes, but you don't want "true FLAC". Metallica - Master of Puppets (1986) Source from ilCorSaRoBlu. 1, DVD, FLAC, APE | Archive of surround sound and lossless music for free. We put together a catalog of MP3/FLAC music and decided to make it available on the Web. Shackled to the Chains of Command 3. Sus álbumes se han vendido en numerosos países, en un total estimado de 200 millones de copias, embarcándose en giras multitudinarias por todo el mundo, y sus éxitos han musicalizado varias producciones cinematográficas sobresalientes. index-of-mp3. HDLight 720p (x264) HDLight 1080p (x264) BDRiP 720p (XViD) Nouveauté Films HD. zip : 2,90 GB…. HDtracks high resolution music downloads. Every Day S A Weekend 10. Apocalyptica - Plays Metallica by Four Cellos - A Live Performance (2018) FLAC Metallica - 2018-05-07- Stockholm, Sweden (2018) Hi-Res Metallica - The $5. Date October 27, 2018. mp3: 30-Jan-2008 20:35:. These are FLAC files and they are high-res. Any complete CD albums, whether in multiple files or single file archive (e. 99 prebeta 5 from 4. A companion / homage to the original LTSO. 6M: 003) Lynyrd Skynyrd - Freebird. If you actually rip a CD you own into FLAC format, it picks up all these tiny skips and gaps that CD players don't, leading to great quality but with not 100% solid songs. Le troisième album de Metallica est un condensé compact et puissant de maîtrise technique, créativité et de riffs légendaires. [ Download FLAC] [ Download MP3] Password: calf-music. Out of Body NEEDTOBREATHE MP3 Music. Lossless FLAC streaming of BBC Radio 3 is here with their Concert Sound stream thanks to the team at BBC Taster. FLAC is perhaps the best audio quality you can get, but the files are also huge. 0 % Test CRC E0013CA3 Copy CRC 312FD7E5 Track not present in AccurateRip database Copy OK Track 2. dll files there when. The New Face of Hell 03. 61 KB 01 Frantic. Head of the Snake 05. flac" WAVE TRACK 10 AUDIO TITLE "Battery" ISRC GBAMC9900025 INDEX 01 00:00:00. I restored those entries and have temporarily disabled the delete and edit functions to prevent further damage. Metallica – Master Of Puppets Remastered Expanded Edition Released: 2017 Genre: Metal Bitrate: FLAC & MP3 320 KBPS. 1) downloaded files from Metallica website as. Reload debuted at number one on the Billboard 200, selling 436,000 copies in its first week. The album is a follow-up to Load, released the previous year, and Metallica's last studio album to feature bassist Jason Newsted. Legend Heaven 07. 0 % Test CRC E0013CA3 Copy CRC 312FD7E5 Track not present in AccurateRip database Copy OK Track 2. Artist: Metallica Title Of Album: S&M2 [2CD] Year Of Release: 2020 Label (Catalog#): Blackened Recordings [BLCKND043-2B] Country: USA Genre: Heavy Metal, Thrash Metal Quality: FLAC (*image +. 2 or any later version published by the Free Software Foundation; with no Invariant Sections, no Front-Cover Texts, and no Back-Cover Texts. It was recorded in an eight-month span at One on One Recording Studios in Los Angeles. Tracklist: 01 – Enter Sandman (Live In Mexico City) 02 – Creeping Death (Live In Mexico City) 03 – Harvester Of Sorrow (Live In Mexico City). But as mville points out *ripping* a CD that is 16/44. mp3: 26-Jul-2008 19:49 : 9. 32 GB | Genre: Thrash Metal Official Digital Download - Source: hdtracks. Christian Klinkenberg – Der Gletscher (2020) [24bit FLAC] Top Posts. 187 GB 1983 Kill. Metallica – Master Of Puppets Remastered Expanded Edition Released: 2017 Genre: Metal Bitrate: FLAC & MP3 320 KBPS. 寶麗金 Forever Live 演唱會 Polygram Forever Live 2013 BluRay 1080i AVC DTS-HDMA5. Read more here. 41 GB (FLAC Stereo) | 3% RAR Recovery Label: Elektra | USA | Cat#: 61113-9 | Genre: Thrash Metal After the muddled production and ultracomplicated song structures of …And Justice for All, Metallica decided that they had taken the progressive elements of their music as far as they could and. Total Size: 5. We provide fast downloadable and reliable service for you. Rendered audio @24/96 PCM. File formats: FLAC, WAV, MLP, APE, TTA, ALS, etc. [ Download FLAC] [ Download MP3] Password: calf-music. zip to FLAC 3) converted FLAC to WAV @24/96 via Audacity 4) inserted WAV files in Sony Vegas (non-linear video editing program) on the Timeline 5) rendered separate projects for audio and video. Maybe he means a High-Res FLAC file such as a 24/96 or 24/192 FLAC file that was purchased from some on-line store (e. mp3 05 – Seek & Destroy. Do these CDs even exist lol. 6M: 003) Lynyrd Skynyrd - Freebird. Canals: Stereo / 44100 HZ / 16 Bit. The Dividing Line 5. Site details: www. Amazon| Homepage. Container: flac (tracks) Quality: Hi-Fi, lossless audio Sample Rate: 44100 kHz / 16 bit, Stereo Source: Digital download Album Artist/Name: Above and Beyond / The Club Mix Collection Genre: Dance, Trance Release Date: 2020-05-21 www publisher: hd24bit. Trading Death Debut EP of the two-man death metal band Inert. mp3: Badlands: Dreams in. Tags: Metallica. I bought some FLAC files (Metallica at Yankee Stadium from the Metallica website) and want to play them in iTunes. Interview, Keith Relf - 00:56 03. May 4, 2020, 11:49 am. 2M: 002) Van Halen - Eruption. Metallica music and DVDs in formats to suit everyone! Shipping times may be impacted by COVID-19. According to the Power-Metal -Demos 08 Hit The Lights 4:13 09 The Mechanix 4:40 10 Motorbreath/Jump In The Fire. Apocalyptica - Plays Metallica by Four Cellos - A Live Performance (2018) FLAC Metallica - 2018-05-07- Stockholm, Sweden (2018) Hi-Res Metallica - The $5. Recent Entries; 1999-07-27 · Roger Waters @ Gund Arena, Cleveland · Soundcheck · 13 hours ago; 2018-08-31 · Roger Waters @ Olympiski, Moscow · Olympiski · 3 days ago; 2000-04-29 · Oasis @ Maple Leaf Gardens, Toronto · RadioSonic · 5 days ago. Metallica - Bootleg Tracks - 06 - Hunger. The album was produced by Rick Rubin, marking the band's first album since And Justice for All (1988) not to be produced by longtime collaborator Bob Rock. Download high resolution audio files from Norwegian 2L in stereo 96kHz, 192kHz, DXD, DSD and 5. Rendered audio @24/96 PCM. ADTR, Ghost, Metallica, Sabaton, Alestorm, Pantera and SOAD would be preferably on the CD but not a must. PERFORMER "Metallica" INDEX 01 08:15:27 TRACK 03 AUDIO TITLE "Welcome Home (Sanitarium)" PERFORMER "Metallica" INDEX 00 18:37:24 INDEX 01 18:37:25 TRACK 04 AUDIO TITLE "Cliff Burton Bass Solo" PERFORMER "Metallica" INDEX 00 25:09:64 INDEX 01 25:09:65 TRACK 05 AUDIO TITLE "Damage, Inc. Parent Directory-15-14-13-12-11-10-09-08-07-06-05-04-03-02-01: page 01 of 05 +01 +02 +03 +04 +05 +06 +07 +08 +09 +10 +11 +12 +13 +14 +15 <- Back | Next page ->. 1 (2020) Pain of Salvation - Panther (2020) John Petrucci - Terminal Velocity (2020). June 22, 2020 We only index and link to content provided by other sites. Sino tambien puedes buscar en Taringa!. Metallica (commonly known as The Black Album) is the fifth studio album by American heavy metal band Metallica, released on August 12, 1991, through Elektra Records. Exact Audio Copy V0. Metallica - Master of Puppest (1986) Remastered FLAC / MP3 [ Download FLAC] [ Download MP3] Password: calf-music. net subscription; start your FREE 30-day trial now!. Art Is Dead 04. zip files 2) extracted all files from. 99 per album for lossless compression (FLAC format) Last Edit: 2004-11-19 11:09:05 by kalmark. Adam Dubin Showcases the Camaraderie of the Bay Area Thrash Metal Scene in 'Murder in the Front Row'. The Champ (3:37). S&M2 Metallica and San Francisco Symphony MP3 Music. org 478 MB 2010. 99 prebeta 5 from 4. PERFORMER "Metallica" INDEX 01 08:15:27 TRACK 03 AUDIO TITLE "Welcome Home (Sanitarium)" PERFORMER "Metallica" INDEX 00 18:37:24 INDEX 01 18:37:25 TRACK 04 AUDIO TITLE "Cliff Burton Bass Solo" PERFORMER "Metallica" INDEX 00 25:09:64 INDEX 01 25:09:65 TRACK 05 AUDIO TITLE "Damage, Inc. dll files there when. exe from official distribution) and it just removed all cover images from all tracks it converted. com [info] TITLE : Sad But True [info] DATE : 1991 [info] track : 02 [info] TRACKTOTAL : 12 [info. Metallica - Death Magnetic (2008, Remastered 2014). Do these CDs even exist lol. Canals: Stereo / 44100 HZ / 16 Bit. Last Entry by davebowman 1969-07-30 - Procol Harum Schaefer Music Festival (late show) - FLAC Date Entered: 2020-07-24 12:49:25. FLAC is a free codec in the fullest sense. Metallica Monday, Tonight's Online Show - Live In London 2016. Silence, And The Firmament Withdrew 3. mp3 06 – Whiplash. Date October 27, 2018. The Very Best Of Jimmy Somerville, Bronski Beat & The Communards + [FLAC] Fazıl Say-Mozart: Complete Piano Sonatas; VA - 30 Pop Classics on Piano (2015) Olivier Chauzu & Jean-Pierre Armengaud-Debussy: Four-Hand Piano Music; VA - SHE Love Sorrows on a Piano (2014) Metallica - Discographie (1983 - 2012) Love Suggestions-Piano Night. Upon His Return 2. Rivertz (1902–1988), I discovered a number of manuscripts – simple arrangements of familiar Christmas carols that the composer had left behind. Metallica / Six Feet Down Under EP. These are available in all major digital formats – MP3, WAV, FLAC, AIFF and ALAC – while electronic musicians are also catered for via a wide range of downloadable stems, track parts and sample packs from some of the biggest names in the industry. Metallica - Kill 'Em All [5 CD] (2016) FLAC Label: Blackened Recordings [BLCKND003RD-1] Country: USA Genre: Heavy Metal, Thrash Metal Quality: FLAC (*i. flac" WAVE TRACK 09 AUDIO TITLE "Enter Sandman" ISRC GBAMC9900023 INDEX 01 00:00:00 FILE "10 - Battery. I restored those entries and have temporarily disabled the delete and edit functions to prevent further damage. FLAC is a free codec in the fullest sense. Download club dance music MP3 and FLAC, Dance compilation, Daily updates club music, Best mixes and sets, Radio show. If you actually rip a CD you own into FLAC format, it picks up all these tiny skips and gaps that CD players don't, leading to great quality but with not 100% solid songs. Anger – which we’ll come to – the Rick Rubin-helmed. Metallica - Death Magnetic (2008, Remastered 2014). com , the definitive online Discography for Metallica Vinyl Bootlegs on the net. mp3 30-Jan-2008 20:35 ACDC - She Shook Me All Night Long(Remix featuring Bon Jovi, Metallica, Nirvana, Def Leppard, Van Halen, and Guns N' Roses). VH1 Behind The Music Remastered Metallica free full download. hi-res music Addeddate 2019-05-09 19:10:46 External_metadata_update 2019-07. Recent Entries; 1999-07-27 · Roger Waters @ Gund Arena, Cleveland · Soundcheck · 13 hours ago; 2018-08-31 · Roger Waters @ Olympiski, Moscow · Olympiski · 3 days ago; 2000-04-29 · Oasis @ Maple Leaf Gardens, Toronto · RadioSonic · 5 days ago. Metallica-And Justice For All-JP REMASTERED-CD-FLAC-2006-DeVOiD (Flac) Metallica-Caught In The Act-BOOTLEG-CD-FLAC-1990-DeVOiD (Flac) Metallica-Damaged Justice 88-89-BOOTLEG-2CD-FLAC-1991-DeVOiD (Flac) Metallica-Heavy Best-BOOTLEG-CD-FLAC-1993-DeVOiD (Flac) Metallica-Horsemen Of The Apokalypse-BOOTLEG-CD-FLAC-1990-DeVOiD (Flac) Metallica-Rare. Metallica 2004-10-25 Boston, MA FLAC/AUD. Metallica / S&M2 Vinyl Box Sets Deluxe Edition Box Set: 4 LPs (2 half/half LPs and 2 half/half Splatter LPs) + 2 CDs + Blu-Ray + 28-Page Book + 24" x 36" Poster + Sheet Music + 5 Guitar Picks + Download Code ABLN 043BOX $129. 82 GB) Afficher / Masquer le texte Vous devez vous enregistrer avant de lire ce commentaire. 69 GB (DVD-A) + 3. mp3 05 – Seek & Destroy. Metallica 'Ride The Lightning Demo' (2010 Not On Label : R-11-21 Source: 12" Vinyl LP Studio Soundboard Recordings Encoded: FLAC. Since this represents a variation of less than 10% i have only included the one file of compression level 0. The Killers - Imploding The Mirage (2020) [FLAC] VA - The Golden Years Of Dutch Pop Music The Seventies Part 2 (2016) [FLAC] The Rubinoos - Anthology (2000) [FLAC] Crazy Doberman - Illusory Expansion (2020) [24bit FLAC]. Out of Body NEEDTOBREATHE MP3 Music. Flat soundboard Or Ex Audience:: Cd-R:: Lossless FLAC. This website is an external. Here at Allflac. Flying In Time 07. info open music storage - [ Traduzca esta página ] Slipknot - Live At Dynamo 2000 Year: 2000 Genre: Alternative Track list: Slipknot - 742617000027. Index Of Flac. mp3 02 – For Whom the Bell Tolls. flac: Badlands: Dreams in the Dark: Youth Gone Wild: Heavy Metal Hits of the '80s, Vol. mp3 03 – Fade to Black. 41 GB (FLAC Stereo) | 3% RAR Recovery Label: Elektra | USA | Cat#: 61113-9 | Genre: Thrash Metal After the muddled production and ultracomplicated song structures of …And Justice for All, Metallica decided that they had taken the progressive elements of their music as far as they could and. download VH1 Behind The Music Remastered Metallica search results hosted on nitroflare uploaded rapidgator uploadrocket torrent uploadex sendspace with crack serial keygen. Hunted Like the Prey that You Are (Feat Mark Kloeppel, Misery Index) Latest Warpath release. January 2013, 18:22 Metallica / Master of Puppets Used drive : Optiarc DVD RW AD-5240S Adapter: 3 ID: 0 Read mode : Secure Utilize accurate stream : Yes Defeat audio cache : Yes Make use of C2 pointers : No Read offset correction : 48. Samson - live at East Anglia Rock Festival, Mildenhall, Suffolk, England, July 24, 1982. Parent Directory - 001) Led Zeppelin - Stairway to Heaven. The album is a follow-up to Load, released the previous year, and Metallica's last studio album to feature bassist Jason Newsted. Any complete CD albums, whether in multiple files or single file archive (e. This thread is archived. Metallica Close. Tags: Metallica. Bittersweet. cue) Tracklist: 01. 5: 190 : Sting 2017-04-09 London, England FLAC/AUD (Carbobueno Source. The Ambience Of War by Warpath, released 20 April 2017 1. Tank - live at Markthalle, Hamburg, December 9, 1984 (during the tour w/ Metallica). 1 kHz (Tracks) Artist: Mathusalemherod Title: Discography (2018-2020) Released: 2020 Style: Power Electronic, Industrial, Ambient RAR Size: 894 Mb Tracklist & Download Links. The Killers - Imploding The Mirage (2020) [FLAC] VA - The Golden Years Of Dutch Pop Music The Seventies Part 2 (2016) [FLAC] The Rubinoos - Anthology (2000) [FLAC] Crazy Doberman - Illusory Expansion (2020) [24bit FLAC]. Head of the Snake 05. Metallica - S&M (2016) Hi-Res Hi-Res 24 bit / Rock / Metal 12-03-2019, 03:42 943 0 aleXs All albums Metallica Michael Kamen The San Francisco Symphony Orchestra Quality: FLAC 24 bit / 96 kHz (Tracks). My top ten are (and these are not in order) The Frayed Ends Of Sanity, Ride The Lightning, Motorbreath, Escape, To Live Is To Die, The Shortest Straw, Welcome Home (Sanitarium), Where The Wild Things Are, That Was Just Your Life and Blackened. Here is a list of 27 AC/DC albuma that you will download with this link:- The Best Of AC/DC 76 Jailbreak Back in Black BallBreaker Blow Up Your Video Bonfire - (1) Live from The A. cue) Tracklist: 01. Adam Dubin Showcases the Camaraderie of the Bay Area Thrash Metal Scene in 'Murder in the Front Row'. Disposable Heroes 06. flac) Тип рипа: tracks+. Metallica & The San Francisco Symphony - S&M 2 (2020) + Blu-Ray + BDRip; Napalm Death - Throes of Joy in the Jaws of Defeatism (2020) filecrypt + turbobit have some problems; Ensiferum - Thalassic (Deluxe Edition) (2020) Static-X - Project Regeneration, Vol. 6M: 003) Lynyrd Skynyrd - Freebird. 0 beta 3 from 29. Bittersweet. Date October 27, 2018. 100 [info] Input #0, flac, from '02 - Sad But True. Here at Allflac. Maybe he means a High-Res FLAC file such as a 24/96 or 24/192 FLAC file that was purchased from some on-line store (e. Message From Hell Files: 13. I learned that Fluke for Mac is the application to use for this, but it doesn't seem to work in Lion without some fancy maneuvering (converting iTunes to 32 bit, which I don't know how to do). Metallica - Nothing Else Matters. Reload debuted at number one on the Billboard 200, selling 436,000 copies in its first week. Recorded in December 1961, this was recorded in the back room of Dick Taylors’ parents home with the band consisting of Mick Jagger on vocal, Keith Richard and Bob Beckwith on guitars, Dick Taylor on bass and Allen Etherington on percussion. Metallica, one of the biggest selling acts in American history, were born on October 28, 1981 when drummer Lars Ulrich and guitar player/singer James Hetfield got together via Ulrich’s LA Recycler newspaper ad. Qualità: Lossless. flac: Badlands: Dreams in the Dark: Youth Gone Wild: Heavy Metal Hits of the '80s, Vol. zip files 2) extracted all files from. Permission is granted to copy, distribute and/or modify this document under the terms of the GNU Free Documentation License, Version 1. Metallica - Master of Puppest (1986) Remastered FLAC / MP3 [ Download FLAC] [ Download MP3] Password: calf-music. 187 GB 1983 Kill. Artist: Metallica Title Of Album: S&M2 [2CD] Year Of Release: 2020 Label (Catalog#): Blackened Recordings [BLCKND043-2B] Country: USA Genre: Heavy Metal, Thrash Metal Quality: FLAC (*image +. 41 GB (FLAC Stereo) | 3% RAR Recovery Label: Elektra | USA | Cat#: 61113-9 | Genre: Thrash Metal After the muddled production and ultracomplicated song structures of …And Justice for All, Metallica decided that they had taken the progressive elements of their music as far as they could and. 1 kHz (Tracks) Artist: Metallica, San Francisco Symphony Title: S&M2 Released: 2020 Style: Thrash Metal RAR Size: 1. Metallica / S&M2 Vinyl Box Sets Deluxe Edition Box Set: 4 LPs (2 half/half LPs and 2 half/half Splatter LPs) + 2 CDs + Blu-Ray + 28-Page Book + 24" x 36" Poster + Sheet Music + 5 Guitar Picks + Download Code ABLN 043BOX $129. Ah, the joy of humble beginnings… Metallica, one of the biggest selling acts in American history, were born on October 28, 1981 when drummer Lars Ulrich and guitar player/singer James Hetfield got together via Ulrich's LA Recycler newspaper ad. June 22, 2020 We only index and link to content provided by other sites. MISERY INDEX have released six studio albums, several EPs and performed over 1400 concerts in 45+ countries. September 2010, 13:05. Thrive on Carnage 4. 24 per 10 minutes of lossless compression (FLAC format) $6. 19Mb: September 10 2007: Metallica - Bootleg Tracks - 07 - Imperial March. FLAC is my choice, ipods prior to gen6s were able to run cracked firmware, so FLAC is supported on them, gen6 run encrypted firmware and no ones released something that enables FLAC to them yet only reason i got an ipod is because it's the best unit to integrate into my car – nothing else has such a wide range of accessories so that it can. Under the Gun 09. Samson - live at East Anglia Rock Festival, Mildenhall, Suffolk, England, July 24, 1982. File formats: FLAC, WAV, MLP, APE, TTA, ALS, etc. Battle For The Universe 12. Metallica (commonly known as The Black Album) is the fifth studio album by American heavy metal band Metallica, released on August 12, 1991, through Elektra Records. Metallica – Master Of Puppets Remastered Expanded Edition Released: 2017 Genre: Metal Bitrate: FLAC & MP3 320 KBPS. 21Kb: May 27 2007. 1) downloaded files from Metallica website as. in April 2015. 24 per 10 minutes of lossless compression (FLAC format) $6. flac': [info] Metadata: [info] ALBUM : Metallica (Studio Master 24bit/96kHz) [info] album_artist : Metallica [info] ARTIST : Metallica [info] GENRE : Pop/Rock [info] HDTRACKS : www. Sus álbumes se han vendido en numerosos países, en un total estimado de 200 millones de copias, embarcándose en giras multitudinarias por todo el mundo, y sus éxitos han musicalizado varias producciones cinematográficas sobresalientes. For pay services and obviously if you like the band, Metallica's live site is quite good and supports FLAC, I think Pearl Jam are also doing the same 2006-10-05, 09:38 #5 snarlydwarf. Metallica music and DVDs in formats to suit everyone! Shipping times may be impacted by COVID-19. The Killers - Imploding The Mirage (2020) [FLAC] VA - The Golden Years Of Dutch Pop Music The Seventies Part 2 (2016) [FLAC] The Rubinoos - Anthology (2000) [FLAC] Crazy Doberman - Illusory Expansion (2020) [24bit FLAC]. Metallica - Master of Puppest (1986) Remastered FLAC / MP3 [ Download FLAC] [ Download MP3] Password: calf-music. Rammstein(FLAC) by rammstein. 7 GB Metallica Master Of Puppets (Deluxe Box Set Remastered)-BONUS TRACKS-WEB-2017-ENTiTLED 1. zip files 2) extracted all files from. flac" WAVE TRACK 07 AUDIO TITLE "I Wish It Would Rain Down" PERFORMER "Phil Collins" INDEX 01 00:00:00 FILE "Music/FLAC/Phil Collins/But Seriously/1-04-FLAC-Something Happened On The Way To Heaven-04-51. mp3 (4:17)Slipknot - (sic). Madonna 'Hidden Gems Volume 2' 2CD Limited Edition 2018 (2018 Martigen : CDHG2) Released: 2018 Encoded: 320 Kbps MP3 & FLAC A collection of demos, unreleased tracks, B-sides and rarities. Follow the link at the bottom for a detailed story about how we maintain the catalog. Both FLAC & ALAC are the equivalent of listening to a CD. January 2013, 17:39. flac" WAVE. smoke on the water is so played out its ridiculous that has got to be the easiest non challenging song in the world, hell you can play it on one string. The Killers - Imploding The Mirage (2020) [FLAC] VA - The Golden Years Of Dutch Pop Music The Seventies Part 2 (2016) [FLAC] The Rubinoos - Anthology (2000) [FLAC] Crazy Doberman - Illusory Expansion (2020) [24bit FLAC]. Torrent: Metalllica - Metallica (The Black Album) (1991). Le troisième album de Metallica est un condensé compact et puissant de maîtrise technique, créativité et de riffs légendaires. PERFORMER "Metallica" INDEX 01 08:15:27 TRACK 03 AUDIO TITLE "Welcome Home (Sanitarium)" PERFORMER "Metallica" INDEX 00 18:37:24 INDEX 01 18:37:25 TRACK 04 AUDIO TITLE "Cliff Burton Bass Solo" PERFORMER "Metallica" INDEX 00 25:09:64 INDEX 01 25:09:65 TRACK 05 AUDIO TITLE "Damage, Inc. Metallica - Metallica [Japan, SHM-CD] (1991/2010) FLAC rutor. Total Size: 5. The Dividing Line 5. cue,log,scans) Bitrate: Lossless Time: 67:33 + 76:08 Full Size: 1. This thread is archived. 1 LPCM-CHDBits; 陰陽路3:升棺發財 (1998) Troublesome Night 3 1998 BluRay 1080p AVC TrueHD5. PERFORMER "Phil Collins" INDEX 01 00:00:00 FILE "Music/FLAC/Phil Collins/But Seriously/1-06-FLAC-I Wish It Would Rain Down-05-27. Metallica – Master Of Puppets Remastered Expanded Edition Released: 2017 Genre: Metal Bitrate: FLAC & MP3 320 KBPS. Lolathon stream on 2018-12-29 21:18:18 - evaluate stats, view chart, watch VOD. Upon His Return 2. Fue fundada en 1981 en Los Ángeles por Lars Ulrich y James Hetfield, a los que se les unirían Dave Mustaine y Cliff Burton. Lady Lightning 09. Nuclear Blast, one of the world leading Heavy Metal Online-Shops is the number one when it comes to ordering CDs, Vinyl, T-Shirts, DVDs and Tickets, as well as accessories such as Band Shirts, Girlies, Accessoires and a lot more from the Heavy Metal scene. Head of the Snake 05. HighResolutionMusic. Related Blog Posts. I encoded the sample with all of these levels which resulted in files with bit rates from 901kbps (level 8) to 968kbps (level 0). exe from official distribution) and it just removed all cover images from all tracks it converted. 98 EP: Garage Days Re-Revisited [Japanese] (2018) FLAC. Parent Directory-15-14-13-12-11-10-09-08-07-06-05-04-03-02-01: page 01 of 05 +01 +02 +03 +04 +05 +06 +07 +08 +09 +10 +11 +12 +13 +14 +15 <- Back | Next page ->. Codec: Free Lossless Audio Codec (FLAC) Version: reference libFLAC 1. FLAC The FLAC codec allows a compression level from 0 to 8. Hunted Like the Prey that You Are (Feat Mark Kloeppel, Misery Index) Latest Warpath release. they are one of the greatests bands ever. Anette Maiburg, Alexandra Cravero, Emmanuel Ceysson, Karina Buschinger, Wen Xiao Zheng, Guido Schiefen, Mathias Haus. Metallica / Orgullo, Pasion, Y Gloria (CD 1). 21Kb: May 27 2007. Metallica - Bootleg Tracks - 06 - Hunger. zip files 2) extracted all files from. Consider this online catalog our tribute to art, our tribute to real music. Both FLAC & ALAC are 16-bit with a sample rate of 44. INDEX 01 00:00:00 FILE "08 - One. King Of The Light 06. 2019-04-29 Greenfield Lake Amphitheatre Wilmington, NC Set One: 01-Traveling Tune 3:36 02-Patchwork Quilt 5:55 03-Pressure Under Fire 5:09 04-Rocking Horse 9:24. in April 2015. August 31, 2020: Explore the download and CD catalog below or stream the entire Live Metallica concert catalog on-demand with a nugs. FLAC FLAC-HD MP3 Home Met Store Music. dll files there when. Here at Allflac. :: Size: 348,81 MB (flac. Rendered audio @24/96 PCM. 6M: 003) Lynyrd Skynyrd - Freebird. The Gallery 6. 36 GB: gheTTo: Muh Dikhai – Shafqat Amanat Ali Full Album Mp3-Flac-M4a [FPRG] 0 / 0: 2020-08-26: 521. The Dividing Line 5. Metallica music and DVDs in formats to suit everyone! Shipping times may be impacted by COVID-19. 85 MB: GROO: Sadak 2 (Original Motion Picture Soundtrack) 2020 DEEZER DL FLAC: 0 / 0. The Hangman 05. FLAC is an excellent format of music, yes, but you don't want "true FLAC". Metallica Discography STUDIO 10 Albums + 1 Cover Album FLAC Metallica Discography STUDIO 10 Albums + 1 Cover Album FLAC Metallica is an American heavy metal band. Find Metallica discography, albums and singles on AllMusic. Origen: Los Ángeles, California, Estados Unidos Género(s): Heavy Metal // Thrash Metal // Hard rock. Quality: FLAC 24 bit / 44. Metallica 2004-10-25 Boston, MA FLAC/AUD. mp3 03 – Fade to Black. Fue fundada en 1981 en Los Ángeles por Lars Ulrich y James Hetfield, a los que se les unirían Dave Mustaine y Cliff Burton. Metallica / Orgullo, Pasion, Y Gloria (CD 1). Parent Directory-15-14-13-12-11-10-09-08-07-06-05-04-03-02-01: page 01 of 05 +01 +02 +03 +04 +05 +06 +07 +08 +09 +10 +11 +12 +13 +14 +15 <- Back | Next page ->. Narcotic Clan 06. download VH1 Behind The Music Remastered Metallica search results hosted on nitroflare uploaded rapidgator uploadrocket torrent uploadex sendspace with crack serial keygen. Metallica - Bootleg Tracks - 06 - Hunger. Site details: www. 85 MB: GROO: Sadak 2 (Original Motion Picture Soundtrack) 2020 DEEZER DL FLAC: 0 / 0. Damage, Inc. The album is a follow-up to Load, released the previous year, and Metallica's last studio album to feature bassist Jason Newsted. Tell No Lies 03. Metallica es una banda de Thrash Metal originaria de Los Ángeles, pero con base en San Francisco desde febrero de 1983. Total Size: 5. 1, DVD, FLAC, APE | Archive of surround sound and lossless music for free. Apocalyptica-Plays_Metallica_By_Four_Cellos-Remastered-CD-FLAC-2016-FORSAKEN Quality: 849 Kbps @ 44 Khz , N/A Total Playtime: 58:16 Filesize: 353 MB. Metallica - Kill 'Em All [5 CD] (2016) FLAC Label: Blackened Recordings [BLCKND003RD-1] Country: USA Genre: Heavy Metal, Thrash Metal Quality: FLAC (*i. EAC extraction logfile from 4. FLAC is a free codec in the fullest sense. Channel: Sevrill's Loved Tracks. Looking for a CD for my car - looking for a mix of metal songs on one CD if possible. Metallica Close. August 2011 EAC extraction logfile from 5. This website is an external content index. hi-res music Addeddate 2019-05-09 19:10:46 External_metadata_update 2019-07. 倖田來未 – XXKK download zip rar mp3 aac m4a flac…. 69 GB (DVD-A) + 3. flac: Badlands: Dreams in the Dark: Youth Gone Wild: Heavy Metal Hits of the '80s, Vol. 5 GB Metallica - Through the Never Soundtrack (2013) l Audio l English Album Track l 320Kbps l Mp3 238 MB. More Love - Songs. You should have registered it in the system32 folder though as its a system wide thing and not just for ImgBurn Actually, in 64-bit Windows, I believe files that would normally go into the system32 folder now belong in the SysWOW64 folder. Battle For The Universe 12. mp3: 26-Jul-2008 19:50 : 1. North Of No South (4:05) 02. 1) downloaded files from Metallica website as. info open music storage - [ Traduzca esta página ] Slipknot - Live At Dynamo 2000 Year: 2000 Genre: Alternative Track list: Slipknot - 742617000027. zip to FLAC 3) converted FLAC to WAV @24/96 via Audacity 4) inserted WAV files in Sony Vegas (non-linear video editing program) on the Timeline 5) rendered separate projects for audio and video. Metallica es una banda de Thrash Metal originaria de Los Ángeles, pero con base en San Francisco desde febrero de 1983. Canals: Stereo / 44100 HZ / 16 Bit. June 22, 2020 We only index and link to content provided by other sites. CD2/ 01 – Through the Never. Used drive : HL-DT-STDVDRAM GSA-H10N Adapter: 0 ID: 0. mp3: 30-Jan-2008 20:35:. Bittersweet. 00 Peak level 100. Now expanded to a whopping 26 tracks and including a tome of a booklet that features a fulsome biography, track recording details, and song lyrics, Assault the Rock & Roll Era is the ultimate compilation. mp3 06 – Whiplash. Thank you, I'll give it a try. Fue fundada en 1981 en Los Ángeles por Lars Ulrich y James Hetfield, a los que se les unirían Dave Mustaine y Cliff Burton. The Very Best Of Jimmy Somerville, Bronski Beat & The Communards + [FLAC] Fazıl Say-Mozart: Complete Piano Sonatas; VA - 30 Pop Classics on Piano (2015) Olivier Chauzu & Jean-Pierre Armengaud-Debussy: Four-Hand Piano Music; VA - SHE Love Sorrows on a Piano (2014) Metallica - Discographie (1983 - 2012) Love Suggestions-Piano Night. The Hangman 05. Index of led zeppelin flac Index of led zeppelin flac. File formats: FLAC, WAV, MLP, APE, TTA, ALS, etc. 36 GB: gheTTo: Muh Dikhai – Shafqat Amanat Ali Full Album Mp3-Flac-M4a [FPRG] 0 / 0: 2020-08-26: 521. com you can download lossless music in popular formats FLAC, APE, ALAC, MP3, M4A. After the misfire that was St. INDEX 01 00:00:00 FILE "08 - One. Responsible for bringing the genre back to Earth, the bandmates looked and talked like they were from the street, shunning the usual rockstar games of metal musicians during the early ’80s. 30 MB Metallica - Death Magnetic ( 2008 ) WMA320 File Size : 176. Lolathon stream on 2018-12-29 21:18:18 - evaluate stats, view chart, watch VOD. FLAC is my choice, ipods prior to gen6s were able to run cracked firmware, so FLAC is supported on them, gen6 run encrypted firmware and no ones released something that enables FLAC to them yet only reason i got an ipod is because it's the best unit to integrate into my car – nothing else has such a wide range of accessories so that it can. The Dividing Line 5. On various conversion and ripping software I notice when going to flac that a number (usually 5) is selectable; which I'm assuming is some sort of compression algorithm. Lady Lightning 09. flac: Badlands: Dreams in the Dark: Youth Gone Wild: Heavy Metal Hits of the '80s, Vol. Tags: Metallica. FLAC decoding is the fastest among lossless codecs and its compression is within 3% of even the most complex codecs. Infectors 5. De la violence brute de Battery à l’instrumental et jazzy Orion (un des plus beau instrumentaux du groupe), en passant par la chanson titre, Master Of Puppets et ses solos aériens ou la semi-ballade Welcome. Head of the Snake 05. This thread is archived. Metallica - Essentials + FLAC DVDRiP, télécharger Metallica - Essentials + FLAC, downlaod Metallica - Essentials + FLAC, télécharger Metallica - Essentials + FLAC gratuitement, Metallica - Essentials + FLAC uptobox, Metallica - Essentials + FLAC 1fichier, Metallica - Essentials + FLAC uploaded, Metallica - Essentials + FLAC free, Metallica - Essentials + FLAC VF Vostfr. Date October 27, 2018. Metallica-And Justice For All-JP REMASTERED-CD-FLAC-2006-DeVOiD (Flac) Metallica-Caught In The Act-BOOTLEG-CD-FLAC-1990-DeVOiD (Flac) Metallica-Damaged Justice 88-89-BOOTLEG-2CD-FLAC-1991-DeVOiD (Flac) Metallica-Heavy Best-BOOTLEG-CD-FLAC-1993-DeVOiD (Flac) Metallica-Horsemen Of The Apokalypse-BOOTLEG-CD-FLAC-1990-DeVOiD (Flac) Metallica-Rare. Metallica is easily one of the best, most influential heavy metal band of the '80s. 2016) flac 16b + [email protected] necrocoital amputorgy 2. Actually starting out on some metallica is not that bad of an idea, Kirk uses alot of scales and classical techniques that will come in real handy when you start to really get into guitar. Download club dance music MP3 and FLAC, Dance compilation, Daily updates club music, Best mixes and sets, Radio show. Trading Death Debut EP of the two-man death metal band Inert. Rush July 9, 2015 Kansas City, Missouri, USA Sprint Center "R40KC" Xavel Silver Masterpiece Series XAVEL-SMS-053 Japanese 3 CD set Contrast clause: The material in this torrent is different than any other recording of Kansas City July 9, 2015 known to appear on the tracker. Just go listen to kill em' all, ride the lightning, master of puppets, And justice for all and there is your answer. Any complete CD albums, whether in multiple files or single file archive (e. Quality: FLAC 24 bit / 44. FILE "VA - Re-Machined- A Tribute To Deep Purple's Machine Head. The Dividing Line 5. I learned that Fluke for Mac is the application to use for this, but it doesn't seem to work in Lion without some fancy maneuvering (converting iTunes to 32 bit, which I don't know how to do). Ah, the joy of humble beginnings… Metallica, one of the biggest selling acts in American history, were born on October 28, 1981 when drummer Lars Ulrich and guitar player/singer James Hetfield got together via Ulrich's LA Recycler newspaper ad. Kill 'Em All {2010 SHM-CD Cardboard Sleeve,Limited Release, UICY94662} Ride The Lightning {DCC 24k Gold Remaster}. Reload is the seventh studio album by American heavy metal band Metallica, released on November 18, 1997 by Elektra Records. 01 MB | File count : 17 | Time : 2015-08-12 00 Metallica album art 01. info open music storage - [ Traduzca esta página ] Slipknot - Live At Dynamo 2000 Year: 2000 Genre: Alternative Track list: Slipknot - 742617000027. Metallica / Six Feet Down Under EP. Important Notice! Someone tried to vandalise the database by deleting about 76k entries. PERFORMER "Metallica" INDEX 01 08:15:27 TRACK 03 AUDIO TITLE "Welcome Home (Sanitarium)" PERFORMER "Metallica" INDEX 00 18:37:24 INDEX 01 18:37:25 TRACK 04 AUDIO TITLE "Cliff Burton Bass Solo" PERFORMER "Metallica" INDEX 00 25:09:64 INDEX 01 25:09:65 TRACK 05 AUDIO TITLE "Damage, Inc. info 839 MB 2018-10-03 2 0 Metallica : Сквозь невозможное / Metallica : Through the Never (2013) BDRemux 1080p. 98 EP: Garage Days Re-Revisited [Japanese] (2018) FLAC. flac" WAVE TRACK 08 AUDIO TITLE "One" ISRC GBAMC9900022 INDEX 01 00:00:00 FILE "09 - Enter Sandman. FLAC is an excellent format of music, yes, but you don't want "true FLAC". 5 GB Metallica - Through the Never Soundtrack (2013) l Audio l English Album Track l 320Kbps l Mp3 238 MB. FLAC The FLAC codec allows a compression level from 0 to 8. But as mville points out *ripping* a CD that is 16/44. August 2011 EAC extraction logfile from 5. Tank - live at Markthalle, Hamburg, December 9, 1984 (during the tour w/ Metallica). FLAC (Free Lossless Audio Codec) & ALAC (Apple Lossless Audio Codec) are both “lossless” file formats that reduce the size of the file but do not cause a decrease in audio quality. CD2/ 01 – Through the Never. Love and Pride 08. FLAC is an excellent format of music, yes, but you don't want "true FLAC". Message From Hell Files: 13. Metallica music and DVDs in formats to suit everyone! Shipping times may be impacted by COVID-19. 6M: 003) Lynyrd Skynyrd - Freebird. Interview, Keith Relf - 00:56 03. Permission is granted to copy, distribute and/or modify this document under the terms of the GNU Free Documentation License, Version 1. Infectors 5. Metallica Monday, Tonight's Online Show - Live In London 2016. Your absolutely right, To Live Is To Die is a fantastic song. Metallica – Master Of Puppets Remastered Expanded Edition Released: 2017 Genre: Metal Bitrate: FLAC & MP3 320 KBPS. In the course of preparations to record my album, «Spill og Dans», featuring the piano music of Johannes M. HighResolutionMusic. Anette Maiburg, Alexandra Cravero, Emmanuel Ceysson, Karina Buschinger, Wen Xiao Zheng, Guido Schiefen, Mathias Haus. I bought some FLAC files (Metallica at Yankee Stadium from the Metallica website) and want to play them in iTunes. Read more here. Bittersweet. Silence, And The Firmament Withdrew 3. Enjoy the music!. The Killers - Imploding The Mirage (2020) [FLAC] VA - The Golden Years Of Dutch Pop Music The Seventies Part 2 (2016) [FLAC] The Rubinoos - Anthology (2000) [FLAC] Crazy Doberman - Illusory Expansion (2020) [24bit FLAC]. The Dividing Line 5. FLAC The FLAC codec allows a compression level from 0 to 8. 2: Metal: Free Lossless Audio Codec: Badlands - Dreams In The Dark. Total Size: 5. zip : 2,90 GB…. flac: Badlands: Dreams in the Dark: Youth Gone Wild: Heavy Metal Hits of the '80s, Vol. 87 MB 02 St. Rammstein(FLAC) by rammstein. Metallica - Nothing Else Matters. FLAC+CUE+M3U+LOG+COVER Exact Audio Copy V1. flac" WAVE TRACK 10 AUDIO TITLE "Battery" ISRC GBAMC9900025 INDEX 01 00:00:00. Metallica – Metallica (Remastered) (2020) FLAC: rapidgator: Download. Recent Entries; 1999-07-27 · Roger Waters @ Gund Arena, Cleveland · Soundcheck · 13 hours ago; 2018-08-31 · Roger Waters @ Olympiski, Moscow · Olympiski · 3 days ago; 2000-04-29 · Oasis @ Maple Leaf Gardens, Toronto · RadioSonic · 5 days ago. I can't wait to see them, but I am unsure when the are coming to Australia and I can't seem to find any information about it. [16 Bit - 44. Holodox 02. The most recent full-length "Rituals of Power" was released in March 2019 on Season of Mist. Metallica / Six Feet Down Under EP. Apocalyptica-Plays_Metallica_By_Four_Cellos-Remastered-CD-FLAC-2016-FORSAKEN Quality: 849 Kbps @ 44 Khz , N/A Total Playtime: 58:16 Filesize: 353 MB. The band was formed in 1981 in Los Angeles by vocalist/guitarist James Hetfield and drummer Lars Ulrich, and has been based in San Francisco for most of its career. Enjoy the music!. Metallica / Orgullo, Pasion, Y Gloria (CD 1). MQA and FLAC are lossless encodings derived directly from our original production masters. 2: Metal: Free Lossless Audio Codec: Badlands - Dreams In The Dark. Loading Error · · · · · · · · · ·. mediaaddict. 1997 Label: Columbia - CT 67862 • Format: Cassette Album • Country: Canada • Genre: Rock • Style: Alternative Rock Coil is the fifth studio album by Toad the Wet Sprocket released in This was the band's last album for 16 years, until 's New Constellation. This domain name has been seized by ICE - Homeland Security. Metallica - Discography [17 albums] [1983-2019] [FLAC] [TRACKS +. 1 will produce a regular FLAC file that is 16/44. 0 % Test CRC E0013CA3 Copy CRC 312FD7E5 Track not present in AccurateRip database Copy OK Track 2. flac" WAVE TRACK 01 AUDIO TITLE "Battery" PERFORMER "Metallica" REM COMPOSER "Metallica" INDEX 01 00:00:00 TRACK 02 AUDIO TITLE "Master Of Puppets" PERFORMER "Metallica" REM COMPOSER "Metallica" INDEX 01 05:12:27 TRACK 03 AUDIO TITLE "The Thing That Should Not Be" PERFORMER "Metallica" REM COMPOSER "Metallica". Metallica - Kill 'Em All [5 CD] (2016) FLAC Label: Blackened Recordings [BLCKND003RD-1] Country: USA Genre: Heavy Metal, Thrash Metal Quality: FLAC (*i. INDEX 01 00:00:00 FILE "08 - One. LTSO II - IN UTERO (By DCMA) Live! Tonight! Sold Out!! Part II - In Utero Era. Metallica / S&M2 Vinyl Box Sets Deluxe Edition Box Set: 4 LPs (2 half/half LPs and 2 half/half Splatter LPs) + 2 CDs + Blu-Ray + 28-Page Book + 24" x 36" Poster + Sheet Music + 5 Guitar Picks + Download Code ABLN 043BOX $129. Synopsis: Compiled from available sources, many amateur shot, LTSO II covers tour footage from late-92, through 93, up to the last show in March 1994 and features live performances, banter, interviews, rare songs, and fan footage - providing an insight into the band's final. Someone told me next year!!!. Adam Dubin Showcases the Camaraderie of the Bay Area Thrash Metal Scene in 'Murder in the Front Row'. 0 % Test CRC E0013CA3 Copy CRC 312FD7E5 Track not present in AccurateRip database Copy OK Track 2. flac" WAVE. cue,log,scans) Bitrate: Lossless Time: 67:33 + 76:08 Full Size: 1. The band was formed in 1981 in Los Angeles by vocalist/guitarist James Hetfield and drummer Lars Ulrich, and has been based in San Francisco for most of its career. Madonna 'Hidden Gems Volume 2' 2CD Limited Edition 2018 (2018 Martigen : CDHG2) Released: 2018 Encoded: 320 Kbps MP3 & FLAC A collection of demos, unreleased tracks, B-sides and rarities. 1 will produce a regular FLAC file that is 16/44. 99 prebeta 5 from 4. hi-res music Addeddate 2019-05-09 19:10:46 External_metadata_update 2019-07.